Loading...
Error

(Bop, Swing, Vocal) Ella Fitzgerald - The Best Of Twelve Nights In Hollywood (2010) [FLAC (Tracks+.Cue), Lossless]

Статистика раздачи
Размер:  258 MB   |    Зарегистрирован:  13 дней   |    Скачан:  1 раз

Полного источника не было: 1 день 2 часа

Сидов:  0  |  0 KB/s  ]   Личеров:  0  |  0 KB/s  ]

* - сиды/пиры с внешних источников

   
 
Автор Сообщение

Бишеп Пол:Муж

10-Июн-2021 13:48

Ella Fitzgerald - The Best Of Twelve Nights In Hollywood

Жанр: Bop, Swing, Vocal
Год выпуска: 2010
Носитель: CD
Производитель диска: Verve Records - B0013995-02
Аудиокодек: FLAC
Тип рипа: Tracks+.CUE
Битрейт аудио: lossless
Продолжительность: 00:43:53


Треклист:
01. Lover Come Back to Me (01:57)
02. Ac-Cent-Tchu-Ate the Positive (02:48)
03. On a Slow Boat to China (02:25)
04. I'm Glad There Is You (03:12)
05. A-Tisket, A-Tasket (01:55)
06. Give Me the Simple Life (01:54)
07. St. Louis Blues (05:26)
08. Mack the Knife (03:51)
09. Happiness Is Just a Thing Called Joe (03:49)
10. Anything Goes (02:28)
11. Just Squeeze Me (But Please Don't Tease Me) (02:54)
12. Deep Purple (02:12)
13. Hallelujah I Love Him So (02:16)
14. Take the 'A' Train (Alternate Version) (06:46)

Exact Audio Copy V1.3 from 2. September 2016 

EAC extraction logfile from 20. November 2020, 23:28

Ella Fitzgerald / The Best of Twelve Nights in Hollywood

Used drive : HL-DT-STDVD+-RW GT50N Adapter: 1 ID: 0

Read mode : Secure
Utilize accurate stream : Yes
Defeat audio cache : Yes
Make use of C2 pointers : No

Read offset correction : 103
Overread into Lead-In and Lead-Out : No
Fill up missing offset samples with silence : Yes
Delete leading and trailing silent blocks : No
Null samples used in CRC calculations : Yes
Used interface : Native Win32 interface for Win NT & 2000
Gap handling : Appended to previous track

Used output format : User Defined Encoder
Selected bitrate : 1024 kBit/s
Quality : High
Add ID3 tag : No
Command line compressor : C:\Program Files (x86)\Exact Audio Copy\Flac\flac.exe
Additional command line options : -8 -e -p -V -T "ARTIST=%artist%" -T "TITLE=%title%" -T "ALBUM=%albumtitle%" -T "DATE=%year%" -T "TRACKNUMBER=%tracknr%" -T "GENRE=%genre%" -T "PERFORMER=%albuminterpret%" -T "COMPOSER=%composer%" %haslyrics%--tag-from-file=LYRICS="%lyricsfile%"%haslyrics% -T "ALBUMARTIST=%albumartist%" -T "DISCNUMBER=%cdnumber%" -T "TOTALDISCS=%totalcds%" -T "TOTALTRACKS=%numtracks%" -T "COMMENT=%comment%" %source% -o %dest%

TOC of the extracted CD

Track | Start | Length | Start sector | End sector
---------------------------------------------------------
1 | 0:00.00 | 1:57.10 | 0 | 8784
2 | 1:57.10 | 2:48.25 | 8785 | 21409
3 | 4:45.35 | 2:25.08 | 21410 | 32292
4 | 7:10.43 | 3:11.68 | 32293 | 46685
5 | 10:22.36 | 1:55.32 | 46686 | 55342
6 | 12:17.68 | 1:53.45 | 55343 | 63862
7 | 14:11.38 | 5:25.52 | 63863 | 88289
8 | 19:37.15 | 3:51.01 | 88290 | 105615
9 | 23:28.16 | 3:49.26 | 105616 | 122816
10 | 27:17.42 | 2:28.11 | 122817 | 133927
11 | 29:45.53 | 2:53.38 | 133928 | 146940
12 | 32:39.16 | 2:11.56 | 146941 | 156821
13 | 34:50.72 | 2:16.18 | 156822 | 167039
14 | 37:07.15 | 6:45.38 | 167040 | 197452

Track 1

Filename C:\Users\user\EAC\Ella Fitzgerald - The Best of Twelve Nights in Hollywood (2010) [FLAC]\01 - Lover Come Back to Me.wav

Pre-gap length 0:00:02.00

Peak level 94.1 %
Extraction speed 2.4 X
Track quality 100.0 %
Test CRC 1CB38782
Copy CRC 1CB38782
Accurately ripped (confidence 18) [46BC5E38] (AR v2)
Copy OK

Track 2

Filename C:\Users\user\EAC\Ella Fitzgerald - The Best of Twelve Nights in Hollywood (2010) [FLAC]\02 - Ac-Cent-Tchu-Ate the Positive.wav

Peak level 100.0 %
Extraction speed 2.2 X
Track quality 99.9 %
Test CRC B10AC40A
Copy CRC B10AC40A
Accurately ripped (confidence 18) [B6C49189] (AR v2)
Copy OK

Track 3

Filename C:\Users\user\EAC\Ella Fitzgerald - The Best of Twelve Nights in Hollywood (2010) [FLAC]\03 - On a Slow Boat to China.wav

Peak level 100.0 %
Extraction speed 2.2 X
Track quality 99.9 %
Test CRC A856BF8C
Copy CRC A856BF8C
Accurately ripped (confidence 18) [3E00DF1D] (AR v2)
Copy OK

Track 4

Filename C:\Users\user\EAC\Ella Fitzgerald - The Best of Twelve Nights in Hollywood (2010) [FLAC]\04 - I'm Glad There Is You.wav

Peak level 90.4 %
Extraction speed 2.5 X
Track quality 99.9 %
Test CRC A8EFA4B8
Copy CRC A8EFA4B8
Accurately ripped (confidence 18) [126AB906] (AR v2)
Copy OK

Track 5

Filename C:\Users\user\EAC\Ella Fitzgerald - The Best of Twelve Nights in Hollywood (2010) [FLAC]\05 - A-Tisket, A-Tasket.wav

Peak level 100.0 %
Extraction speed 3.0 X
Track quality 100.0 %
Test CRC 63DE7D07
Copy CRC 63DE7D07
Accurately ripped (confidence 18) [D0E277F7] (AR v2)
Copy OK

Track 6

Filename C:\Users\user\EAC\Ella Fitzgerald - The Best of Twelve Nights in Hollywood (2010) [FLAC]\06 - Give Me the Simple Life.wav

Peak level 100.0 %
Extraction speed 3.1 X
Track quality 100.0 %
Test CRC A794EAE1
Copy CRC A794EAE1
Accurately ripped (confidence 18) [7131CC90] (AR v2)
Copy OK

Track 7

Filename C:\Users\user\EAC\Ella Fitzgerald - The Best of Twelve Nights in Hollywood (2010) [FLAC]\07 - St. Louis Blues.wav

Peak level 72.0 %
Extraction speed 3.3 X
Track quality 99.9 %
Test CRC 0D355F30
Copy CRC 0D355F30
Accurately ripped (confidence 18) [5BAF3CF3] (AR v2)
Copy OK

Track 8

Filename C:\Users\user\EAC\Ella Fitzgerald - The Best of Twelve Nights in Hollywood (2010) [FLAC]\08 - Mack the Knife.wav

Peak level 83.6 %
Extraction speed 4.0 X
Track quality 100.0 %
Test CRC 028927E5
Copy CRC 028927E5
Accurately ripped (confidence 18) [8D4C4D10] (AR v2)
Copy OK

Track 9

Filename C:\Users\user\EAC\Ella Fitzgerald - The Best of Twelve Nights in Hollywood (2010) [FLAC]\09 - Happiness Is Just a Thing Called Joe.wav

Pre-gap length 0:00:25.50

Peak level 68.1 %
Extraction speed 4.1 X
Track quality 100.0 %
Test CRC 6DE9E6AA
Copy CRC 6DE9E6AA
Accurately ripped (confidence 18) [39CB502A] (AR v2)
Copy OK

Track 10

Filename C:\Users\user\EAC\Ella Fitzgerald - The Best of Twelve Nights in Hollywood (2010) [FLAC]\10 - Anything Goes.wav

Peak level 100.0 %
Extraction speed 4.0 X
Track quality 100.0 %
Test CRC C8E9E007
Copy CRC C8E9E007
Accurately ripped (confidence 18) [DB764338] (AR v2)
Copy OK

Track 11

Filename C:\Users\user\EAC\Ella Fitzgerald - The Best of Twelve Nights in Hollywood (2010) [FLAC]\11 - Just Squeeze Me (But Please Don't Tease Me).wav

Peak level 95.1 %
Extraction speed 4.2 X
Track quality 100.0 %
Test CRC 449BDD13
Copy CRC 449BDD13
Accurately ripped (confidence 18) [7CE9C54E] (AR v2)
Copy OK

Track 12

Filename C:\Users\user\EAC\Ella Fitzgerald - The Best of Twelve Nights in Hollywood (2010) [FLAC]\12 - Deep Purple.wav

Peak level 48.4 %
Extraction speed 4.0 X
Track quality 100.0 %
Test CRC 73F35C36
Copy CRC 73F35C36
Accurately ripped (confidence 18) [9188A92F] (AR v2)
Copy OK

Track 13

Filename C:\Users\user\EAC\Ella Fitzgerald - The Best of Twelve Nights in Hollywood (2010) [FLAC]\13 - Hallelujah I Love Him So.wav

Peak level 75.9 %
Extraction speed 4.2 X
Track quality 100.0 %
Test CRC 6692AD01
Copy CRC 6692AD01
Accurately ripped (confidence 18) [DE125225] (AR v2)
Copy OK

Track 14

Filename C:\Users\user\EAC\Ella Fitzgerald - The Best of Twelve Nights in Hollywood (2010) [FLAC]\14 - Take the ''A'' Train (alternate version).wav

Peak level 96.6 %
Extraction speed 5.1 X
Track quality 100.0 %
Test CRC 01D38ADD
Copy CRC 01D38ADD
Accurately ripped (confidence 18) [11CE0226] (AR v2)
Copy OK

All tracks accurately ripped

No errors occurred

End of status report

---- CUETools DB Plugin V2.1.6

[CTDB TOCID: G.r6rWyB5lbDVUdJax7Nw3raF3U-] found
Submit result: G.r6rWyB5lbDVUdJax7Nw3raF3U- has been confirmed
Track | CTDB Status
1 | (22/23) Accurately ripped
2 | (22/23) Accurately ripped
3 | (22/23) Accurately ripped
4 | (22/23) Accurately ripped
5 | (22/23) Accurately ripped
6 | (22/23) Accurately ripped
7 | (22/23) Accurately ripped
8 | (22/23) Accurately ripped
9 | (21/23) Accurately ripped
10 | (21/23) Accurately ripped
11 | (21/23) Accurately ripped
12 | (21/23) Accurately ripped
13 | (21/23) Accurately ripped
14 | (20/23) Accurately ripped

==== Log checksum AD92F9800279C7BCA82A2507543C877D9A3B1ECB8DBEF2D60521B2647EC09D16 ====
REM GENRE Jazz 
REM DATE 2010
REM DISCID C50A480E
REM COMMENT "ExactAudioCopy v1.3"
CATALOG 0602527323299
PERFORMER "Ella Fitzgerald"
TITLE "The Best of Twelve Nights in Hollywood"
FILE "01 - Lover Come Back to Me.wav" WAVE
TRACK 01 AUDIO
TITLE "Lover Come Back to Me"
PERFORMER "Ella Fitzgerald"
ISRC USUM70979049
INDEX 01 00:00:00
FILE "02 - Ac-Cent-Tchu-Ate the Positive.wav" WAVE
TRACK 02 AUDIO
TITLE "Ac-Cent-Tchu-Ate the Positive"
PERFORMER "Ella Fitzgerald"
ISRC USUM70979053
INDEX 01 00:00:00
FILE "03 - On a Slow Boat to China.wav" WAVE
TRACK 03 AUDIO
TITLE "On a Slow Boat to China"
PERFORMER "Ella Fitzgerald"
ISRC USUM70979056
INDEX 01 00:00:00
FILE "04 - I'm Glad There Is You.wav" WAVE
TRACK 04 AUDIO
TITLE "I'm Glad There Is You"
PERFORMER "Ella Fitzgerald"
ISRC USUM70979063
INDEX 01 00:00:00
FILE "05 - A-Tisket, A-Tasket.wav" WAVE
TRACK 05 AUDIO
TITLE "A-Tisket, A-Tasket"
PERFORMER "Ella Fitzgerald"
ISRC USUM70979073
INDEX 01 00:00:00
FILE "06 - Give Me the Simple Life.wav" WAVE
TRACK 06 AUDIO
TITLE "Give Me the Simple Life"
PERFORMER "Ella Fitzgerald"
ISRC USUM70979069
INDEX 01 00:00:00
FILE "07 - St. Louis Blues.wav" WAVE
TRACK 07 AUDIO
TITLE "St. Louis Blues"
PERFORMER "Ella Fitzgerald"
ISRC USUM71003829
INDEX 01 00:00:00
FILE "08 - Mack the Knife.wav" WAVE
TRACK 08 AUDIO
TITLE "Mack the Knife"
PERFORMER "Ella Fitzgerald"
ISRC USUM70979097
INDEX 01 00:00:00
TRACK 09 AUDIO
TITLE "Happiness Is Just a Thing Called Joe"
PERFORMER "Ella Fitzgerald"
ISRC USUM70979097
INDEX 00 03:25:38
FILE "09 - Happiness Is Just a Thing Called Joe.wav" WAVE
INDEX 01 00:00:00
INDEX 02 03:49:26
FILE "10 - Anything Goes.wav" WAVE
TRACK 10 AUDIO
TITLE "Anything Goes"
PERFORMER "Ella Fitzgerald"
ISRC USUM70979086
INDEX 01 00:00:00
INDEX 02 02:28:11
FILE "11 - Just Squeeze Me (But Please Don't Tease Me).wav" WAVE
TRACK 11 AUDIO
TITLE "Just Squeeze Me (But Please Don't Tease Me)"
PERFORMER "Ella Fitzgerald"
ISRC USUM70979086
INDEX 01 00:00:00
INDEX 02 02:53:38
FILE "12 - Deep Purple.wav" WAVE
TRACK 12 AUDIO
TITLE "Deep Purple"
PERFORMER "Ella Fitzgerald"
ISRC USUM70979095
INDEX 01 00:00:00
INDEX 02 02:11:45
FILE "13 - Hallelujah I Love Him So.wav" WAVE
TRACK 13 AUDIO
TITLE "Hallelujah I Love Him So"
PERFORMER "Ella Fitzgerald"
ISRC USUM70979114
INDEX 01 00:00:00
FILE "14 - Take the 'A' Train (alternate version).wav" WAVE
TRACK 14 AUDIO
TITLE "Take the 'A' Train (alternate version)"
PERFORMER "Ella Fitzgerald"
ISRC USUM71003830
INDEX 01 00:00:00

Этот торрент недоступен для скачивания без регистрации, однако доступен по публичной magnet-ссылке (источники с публичных трекеров). Перед использованием ссылки прочтите, пожалуйста Пользовательское соглашение, а также как можно дольше оставайтесь на раздаче! Для того, чтобы скачать сам торрент-файл (который видит больше источников), а также для того, чтобы поблагодарить релизера, вам необходимо зарегистрироваться. Если регистрироваться лень - вы можете также попробовать скачать релиз по нашим партнерским ссылкам ниже. Кроме того, зарегистрированным пользователям не показывается всплывающая реклама при скачивании.

[underver.se].t210167.torrent
Трекер: Зарегистрирован   [ 10.06.2021 13:48 ]  

Статус: проверено (by Бишеп at 10.06.2021 13:49)
Поблагодарили: пока никто не поблагодарил...
Тип торрента: публичный - доступные источники с открытых трекеров: 
Размер: 258 MB (занимает 0,06 DVDR, для записи нужно 1 болванка DVDR/RW)
 
 
Похожие темы
Форум Тема Автор Торрент Отв. Посл. сооб.
Jazz (Lossless) (Bop, Swing) John Goldsby - Viewpoint (2001) [FLAC (Tracks+.Cue), Lossless] Бишеп
13 | 0

0 | 65

2

03.05.2021 10:42


Яндекс.Метрика powered by Sphinx


В Н И М А Н И Е
Сайт не распространяет и не хранит электронные версии произведений, а лишь бесплатно и без коммерческой выгоды (не требуя взамен платы,
SMS и т.д.) предоставляет доступ к создаваемому пользователями каталогу ссылок на торрент-файлы, которые содержат только списки хеш-сумм.
Убедительная просьба с жалобами обращаться напрямую к пользователю, разместившему торрент файл.

Вверх